Movies torrents - Other torrents

Sicarivs.The.Night.and.the.Silence.2015.BDRip.x264-BiPOLAR[PRiME] torrent

Download Direct: Sicarivs.The.Night.and.the.Silence.2015.BDRip.x264-BiPOLAR[PRiME] - No Client needed
(0) (0)
Download torrent: Sicarivs.The.Night.and.the.Silence.2015.BDRip.x264-BiPOLAR[PRiME] torrent download
Torrent created: 12 Jan 2017 09:53:11
Torrent added: 12 Jan 2017 10:05:02 Report this torrent as fake!
Torrent's info hash: AB8B523D8798EF1B1A20FEF6DF1672C7D019967C
Category: Movies / Other
Seeds: - Scraping... Last scraped ...
Leeches: -
Downloads: -
Announce(s):
Tracker S L DL
http://explodie.org:6969/announce---
http://tracker.tfile.me/announce---
http://bigfoot1942.sektori.org:6969/announce---
udp://eddie4.nl:6969/announce---
udp://tracker4.piratux.com:6969/announce---
udp://tracker.trackerfix.com:80/announce
udp://tracker.pomf.se:80/announce
udp://torrent.gresille.org:80/announce
udp://9.rarbg.me:2710/announce
udp://tracker.leechers-paradise.org:6969/announce
udp://glotorrents.pw:6969/announce
udp://tracker.opentrackr.org:1337/announce
udp://tracker.blackunicorn.xyz:6969/announce
udp://tracker.internetwarriors.net:1337/announce
udp://p4p.arenabg.ch:1337/announce
udp://tracker.coppersurfer.tk:6969/announce
udp://9.rarbg.to:2710/announce
udp://tracker.openbittorrent.com:80/announce
udp://explodie.org:6969/announce
udp://9.rarbg.com:2710/announce
udp://p4p.arenabg.com:1337/announce
udp://ipv4.tracker.harry.lu:80/announce
udp://tracker.zer0day.to:1337/announce
udp://tracker.ilibr.org:80/announce
udp://tracker.ilibr.org:6969/announce
Total Size: 274.85 MB
Files:
Sicarivs.The.Night.and.the.Silence.2015.BDRip.x264-BiPOLAR[PRiME]/Please Support!! Read More!!!.txt - 232 B
Sicarivs.The.Night.and.the.Silence.2015.BDRip.x264-BiPOLAR[PRiME]/Torrent Downloaded From 1337x.to.txt - 69 B
Sicarivs.The.Night.and.the.Silence.2015.BDRip.x264-BiPOLAR[PRiME]/Torrent Downloaded From ExtraTorrent.cc.txt - 446 B
Sicarivs.The.Night.and.the.Silence.2015.BDRip.x264-BiPOLAR[PRiME]/Torrent downloaded from AhaShare.com.txt - 59 B
Sicarivs.The.Night.and.the.Silence.2015.BDRip.x264-BiPOLAR[PRiME]/sicarivs.the.night.and.the.silence.2015.bdrip.x264-bipolar[PRiME].mkv - 274.85 MB

Description


Sicarivs.The.Night.and.the.Silence.2015.BDRip.x264-BiPOLAR[PRiME]

ImDb: http://www.imdb.com/title/tt4860372



Complete name : sicarivs.the.night.and.the.silence.2015.bdrip.x264-bipolar[PRiME].mkv
Format : Matroska
Format version : Version 4 / Version 2
File size : 275 MiB
Duration : 1 h 37 min
Overall bit rate : 393 kb/s
Encoded date : UTC 2017-01-11 16:24:23
Writing application : mkvmerge v8.3.0 ('Over the Horizon') 64bit
Writing library : libebml v1.3.1 + libmatroska v1.4.2

Video
ID : 1
Format : AVC
Format/Info : Advanced Video Codec
Format profile : [email protected]/* */
Format settings, CABAC : Yes
Format settings, ReFrames : 5 frames
Codec ID : V_MPEG4/ISO/AVC
Duration : 1 h 37 min
Bit rate : 254 kb/s
Width : 720 pixels
Height : 304 pixels
Display aspect ratio : 2.35:1
Frame rate mode : Constant
Frame rate : 24.000 FPS
Color space : YUV
Chroma subsampling : 4:2:0
Bit depth : 8 bits
Scan type : Progressive
Bits/(Pixel*Frame) : 0.048
Stream size : 178 MiB (65%)
Writing library : x264 core 148 r2705 3f5ed56
Encoding settings : cabac=1 / ref=5 / deblock=1:-1:-1 / analyse=0x3:0x113 / me=umh / subme=8 / psy=1 / psy_rd=1.00:0.15 / mixed_ref=1 / me_range=16 / chroma_me=1 / trellis=2 / 8x8dct=1 / cqm=0 / deadzone=21,11 / fast_pskip=1 / chroma_qp_offset=-3 / threads=9 / lookahead_threads=1 / sliced_threads=0 / nr=0 / decimate=1 / interlaced=0 / bluray_compat=0 / constrained_intra=0 / bframes=3 / b_pyramid=2 / b_adapt=2 / b_bias=0 / direct=3 / weightb=1 / open_gop=0 / weightp=2 / keyint=250 / keyint_min=24 / scenecut=40 / intra_refresh=0 / rc_lookahead=50 / rc=crf / mbtree=1 / crf=19.0 / qcomp=0.60 / qpmin=0 / qpmax=69 / qpstep=4 / ip_ratio=1.40 / aq=1:1.00
Language : English
Default : Yes
Forced : No
Color range : Limited
Matrix coefficients : BT.709

Audio
ID : 2
Format : AAC
Format/Info : Advanced Audio Codec
Format profile : LC
Codec ID : A_AAC
Duration : 1 h 37 min
Bit rate : 136 kb/s
Channel(s) : 2 channels
Channel positions : Front: L R
Sampling rate : 48.0 kHz
Frame rate : 46.875 FPS (1024 spf)
Compression mode : Lossy
Delay relative to video : 9 ms
Stream size : 95.3 MiB (35%)
Language : Spanish
Default : Yes
Forced : No

Text
ID : 3
Format : UTF-8
Codec ID : S_TEXT/UTF8
Codec ID/Info : UTF-8 Plain Text
Duration : 1 h 35 min
Bit rate : 56 b/s
Count of elements : 1198
Stream size : 39.3 KiB (0%)
Title : forced
Language : English
Default : Yes
Forced : Yes

Menu
00:00:00.000 : en:00:00:00.000
00:09:43.250 : en:00:09:43.250
00:22:02.958 : en:00:22:02.958
00:31:56.000 : en:00:31:56.000
00:41:50.625 : en:00:41:50.625
00:51:20.125 : en:00:51:20.125
01:01:45.417 : en:01:01:45.417
01:10:13.833 : en:01:10:13.833
01:16:59.000 : en:01:16:59.000
01:21:34.625 : en:01:21:34.625
01:29:09.000 : en:01:29:09.000
01:34:54.000 : en:01:34:54.000




Click Image To View Full Size


Click To View Screenshot
Click To View Screenshot
Click To View Screenshot

Comments: