Movies torrents - Other torrents

Run.the.Tide.2016.DVDRip.x264-BiPOLAR[PRiME] torrent

Download Direct: Run.the.Tide.2016.DVDRip.x264-BiPOLAR[PRiME] - No Client needed
(0) (0)
Download torrent: Run.the.Tide.2016.DVDRip.x264-BiPOLAR[PRiME] torrent download
Torrent created: 12 Jan 2017 10:00:10
Torrent added: 12 Jan 2017 10:05:02 Report this torrent as fake!
Torrent's info hash: 510E53DF7695BB1D9C5D57603BCF2971AFB8D258
Category: Movies / Other
Seeds: - Scraping... Last scraped ...
Leeches: -
Downloads: -
Announce(s):
Tracker S L DL
http://explodie.org:6969/announce---
http://tracker.tfile.me/announce---
http://bigfoot1942.sektori.org:6969/announce---
udp://eddie4.nl:6969/announce---
udp://tracker4.piratux.com:6969/announce---
udp://tracker.trackerfix.com:80/announce
udp://tracker.pomf.se:80/announce
udp://torrent.gresille.org:80/announce
udp://9.rarbg.me:2710/announce
udp://tracker.leechers-paradise.org:6969/announce
udp://glotorrents.pw:6969/announce
udp://tracker.opentrackr.org:1337/announce
udp://tracker.blackunicorn.xyz:6969/announce
udp://tracker.internetwarriors.net:1337/announce
udp://p4p.arenabg.ch:1337/announce
udp://tracker.coppersurfer.tk:6969/announce
udp://9.rarbg.to:2710/announce
udp://tracker.openbittorrent.com:80/announce
udp://explodie.org:6969/announce
udp://9.rarbg.com:2710/announce
udp://p4p.arenabg.com:1337/announce
udp://ipv4.tracker.harry.lu:80/announce
udp://tracker.zer0day.to:1337/announce
udp://tracker.ilibr.org:80/announce
udp://tracker.ilibr.org:6969/announce
Total Size: 639.49 MB
Files:
Run.the.Tide.2016.DVDRip.x264-BiPOLAR[PRiME]/Please Support!! Read More!!!.txt - 232 B
Run.the.Tide.2016.DVDRip.x264-BiPOLAR[PRiME]/Torrent Downloaded From 1337x.to.txt - 69 B
Run.the.Tide.2016.DVDRip.x264-BiPOLAR[PRiME]/Torrent Downloaded From ExtraTorrent.cc.txt - 446 B
Run.the.Tide.2016.DVDRip.x264-BiPOLAR[PRiME]/Torrent downloaded from AhaShare.com.txt - 59 B
Run.the.Tide.2016.DVDRip.x264-BiPOLAR[PRiME]/run.the.tide.2016.dvdrip.x264-bipolar[PRiME].mkv - 639.49 MB

Description


Run.the.Tide.2016.DVDRip.x264-BiPOLAR[PRiME]

ImDb: http://www.imdb.com/title/tt2822864



Complete name : run.the.tide.2016.dvdrip.x264-bipolar[PRiME].mkv
Format : Matroska
Format version : Version 4 / Version 2
File size : 639 MiB
Duration : 1 h 36 min
Overall bit rate : 925 kb/s
Encoded date : UTC 2017-01-12 07:14:39
Writing application : mkvmerge v8.5.1 ('Where you lead I will follow') 64bit
Writing library : libebml v1.3.3 + libmatroska v1.4.4

Video
ID : 1
Format : AVC
Format/Info : Advanced Video Codec
Format profile : [email protected]/* */
Format settings, CABAC : Yes
Format settings, ReFrames : 5 frames
Codec ID : V_MPEG4/ISO/AVC
Duration : 1 h 36 min
Bit rate : 782 kb/s
Width : 720 pixels
Height : 304 pixels
Display aspect ratio : 2.35:1
Frame rate mode : Constant
Frame rate : 23.976 (24000/1001) FPS
Color space : YUV
Chroma subsampling : 4:2:0
Bit depth : 8 bits
Scan type : Progressive
Bits/(Pixel*Frame) : 0.149
Stream size : 541 MiB (85%)
Writing library : x264 core 148 r2744 b97ae06
Encoding settings : cabac=1 / ref=5 / deblock=1:-2:-2 / analyse=0x3:0x113 / me=umh / subme=8 / psy=1 / psy_rd=0.80:0.00 / mixed_ref=1 / me_range=16 / chroma_me=1 / trellis=2 / 8x8dct=1 / cqm=0 / deadzone=21,11 / fast_pskip=1 / chroma_qp_offset=-2 / threads=9 / lookahead_threads=1 / sliced_threads=0 / nr=0 / decimate=1 / interlaced=0 / bluray_compat=0 / constrained_intra=0 / bframes=3 / b_pyramid=2 / b_adapt=1 / b_bias=0 / direct=3 / weightb=1 / open_gop=0 / weightp=2 / keyint=240 / keyint_min=23 / scenecut=40 / intra_refresh=0 / rc_lookahead=50 / rc=crf / mbtree=1 / crf=19.0 / qcomp=0.60 / qpmin=0 / qpmax=69 / qpstep=4 / ip_ratio=1.40 / aq=1:1.00
Language : English
Default : Yes
Forced : No

Audio
ID : 2
Format : AAC
Format/Info : Advanced Audio Codec
Format profile : LC
Codec ID : A_AAC
Duration : 1 h 36 min
Bit rate : 140 kb/s
Channel(s) : 2 channels
Channel positions : Front: L R
Sampling rate : 48.0 kHz
Frame rate : 46.875 FPS (1024 spf)
Compression mode : Lossy
Delay relative to video : 9 ms
Stream size : 97.0 MiB (15%)
Language : English
Default : Yes
Forced : No

Menu
00:00:00.000 : en:Chapter 01
00:06:09.934 : en:Chapter 02
00:12:21.535 : en:Chapter 03
00:17:13.403 : en:Chapter 04
00:23:07.570 : en:Chapter 05
00:30:09.404 : en:Chapter 06
00:36:44.471 : en:Chapter 07
00:44:10.339 : en:Chapter 08
00:50:46.706 : en:Chapter 09
00:56:48.106 : en:Chapter 10
01:02:13.440 : en:Chapter 11
01:09:35.774 : en:Chapter 12
01:15:45.608 : en:Chapter 13
01:21:52.576 : en:Chapter 14
01:27:58.810 : en:Chapter 15
01:34:08.744 : en:Chapter 16
01:36:35.744 : en:Chapter 17




Click Image To View Full Size


Click To View Screenshot
Click To View Screenshot
Click To View Screenshot

Comments: